<?xml version="1.0" standalone="no"?>
<!DOCTYPE svg PUBLIC "-//W3C//DTD SVG 1.1//EN" "http://www.w3.org/Graphics/SVG/1.1/DTD/svg11.dtd" >
<svg xmlns="http://www.w3.org/2000/svg">
<metadata>
This is a custom SVG font generated by IcoMoon.
<iconset grid="14"></iconset>
</metadata>
<defs>
<font id="html5test" horiz-adv-x="448" >
<font-face units-per-em="448" ascent="384" descent="-64" />
<missing-glyph horiz-adv-x="448" />
<glyph class="hidden" unicode="&#xf000;" d="M0,384L 448 -64L0 -64 z" horiz-adv-x="0" />
<glyph unicode="&#xe002;" d="M 242.838,384L 127.76,346.885 377.126,266.126 377.126,107.031 210.945,53.316 70.687,98.637 70.687,254.562 206.282,210.73 321.36,247.847 71.62,328.793 0,305.479 0,47.16 210.945-21.102 448,55.554 448,317.789z" data-tags="html5_3d_effects" />
<glyph unicode="&#xe001;" d="M 336.77,130.871l 55.615,0 L 392.385,264.406 l-62.658,62.658l-39.327-39.327l 46.37-46.37L 336.77,130.871 z M 392.532,102.991 l-81.001,0 l-112.99,0 l-46.37,46.37l 19.664,19.664l 38.299-38.299l 78.8,0 l-77.626,77.773l 19.81,19.81l 77.626-77.626l0,78.8  l-38.152,38.152l 19.517,19.517L 193.698,384L 98.61,384L 98.61,384 L0,384l 55.468-55.468l0-0.147 l 0.294,0 l 114.751,0l 40.648-40.648 l-59.43-59.43l-40.648,40.648L 111.083,300.505 L 55.468,300.505 l0-54.587 l 96.263-96.263l-39.18-39.18l 62.658-62.658l 95.088,0 l 177.703,0 l0,0  L 392.532,102.991z" data-tags="html5_connectivity" />
<glyph unicode="&#xe003;" d="M 66.671,384L 51.63,308.791 357.75,308.791 348.196,260.211 41.874,260.211 27.035,185.002 333.155,185.002 316.080,99.223 192.697,58.367 85.778,99.223 93.096,136.421 17.887,136.421 0,46.171 176.842-21.517 380.719,46.171 407.753,181.952 413.241,209.19 448,384z" horiz-adv-x="448" data-tags="html5_css3_styling" />
<glyph unicode="&#xe004;" d="M 325.159,293.094L 416.065,384l-97.438,0 l-94.353-94.353L 129.736,384L 32.298,384 l 90.906-90.906L0,293.094 l0-331.871 l 64.778,0 l 70.221,0  l 27.037,0 l 61.875,61.875l 61.875-61.875l 35.927,0 l 61.511,0 l 64.778,0 L 448,293.094 L 325.159,293.094 z M 224.091,120.716l-90.361-90.543l-64.778,0 L 68.95,224.142 l 310.46,0  l0-193.969 l-64.778,0 L 224.091,120.716z" data-tags="html5_device_access" />
<glyph unicode="&#xe005;" d="M 447.816,384L 349.016,384 279.104,314.271 377.902,314.271zM 224.459,314.271L 294.19,384 195.391,384 125.477,314.271zM 378.086,110.6L 69.729,110.6 69.729,313.535 140.379,384 41.397,384 0,342.603 0,40.686 448,40.686 448,314.271 378.086,314.271z" data-tags="html5_multimedia" />
<glyph unicode="&#xe006;" d="M 448,263.66L 375.186,263.66 C 345.33,335.407, 274.193,384, 195.133,384C 87.589,384,0,296.564,0,188.867 C0,81.17, 87.589-6.42, 195.133-6.42c 79.058,0, 150.045,48.44, 180.053,120.34l 72.661,0 L 447.848,263.66 z M 390.115,171.957L 195.133,171.957  c-9.292,0-16.908,7.464-16.908,16.908c0,9.292, 7.464,16.908, 16.908,16.908l 194.83,0 L 389.963,171.957 z M 195.133,51.465 c-75.707,0-137.248,61.541-137.248,137.248c0,75.707, 61.541,137.248, 137.248,137.248c 46.918,0, 90.027-24.373, 115.008-62.455l-115.008,0  c-41.129,0-74.793-33.513-74.793-74.793c0-41.129, 33.513-74.793, 74.793-74.793l 115.008,0  C 285.312,75.838, 242.203,51.465, 195.133,51.465z" data-tags="html5_offline_storage" />
<glyph unicode="&#xe007;" d="M 442.991,197.989L 377.745,225.050l 26.865,64.87c-6.863,9.595-14.279,18.669-22.442,26.931c-0.487,0.52-0.976,1.057-1.496,1.577  c-0.829,0.829-1.74,1.626-2.651,2.471c-7.984,7.839-16.767,14.945-26.020,21.613L 287.131,315.681L 260.086,380.91  c-23.5,3.968-47.209,4.066-70.157,0.569c-0.424-0.049-0.78-0.081-1.122-0.114c-0.992-0.147-1.952-0.358-2.846-0.569  L 158.918,315.713L 93.673,342.709c-19.482-13.904-36.412-30.622-50.235-49.503c-0.13-0.195-0.293-0.391-0.44-0.601  c-0.569-0.78-1.122-1.593-1.658-2.422l 26.947-65.050L 3.058,198.054c-3.903-23.5-4.034-47.144-0.569-70.075  c 0.049-0.407, 0.081-0.845, 0.163-1.236c 0.114-0.96, 0.31-1.886, 0.487-2.83l 65.147-26.963l-26.947-65.033  c 6.195-8.685, 12.88-17.011, 20.149-24.638c 1.285-1.351, 2.504-2.765, 3.854-4.099c 0.927-0.96, 1.984-1.838, 2.976-2.765  c 7.839-7.627, 16.473-14.538, 25.533-21.027l 65.001,26.931l 26.963-65.131c 0.96-0.195, 1.984-0.375, 2.96-0.601  c 0.228,0.033, 0.52-0.016, 0.764-0.049c 23.043-3.545, 46.804-3.431, 70.465,0.503l 27.028,65.245l 65.082-26.963  c 0.845,0.503, 1.675,1.074, 2.471,1.675c 0.244,0.147, 0.487,0.358, 0.764,0.569c 18.718,13.758, 35.42,30.606, 49.308,50.039l-27.028,65.278  l 65.147,26.963c 0.163,0.927, 0.375,1.919, 0.552,2.927c 0.033,0.293, 0.033,0.601, 0.081,0.894  C 447.024,150.682, 446.926,174.393, 442.991,197.989z M 390.268,148.795l-68.66-28.444l 0.098-0.261l-0.228-0.081l 28.46-68.627  c-5.301-6.179-11.075-11.904-17.286-17.286l-68.66,28.411l-0.081-0.228l-0.228,0.114l-28.428-68.627  c-8.115-0.601-16.214-0.569-24.427-0.033l-28.46,68.66l-0.195-0.081l-0.114,0.261l-68.871-28.54  c-0.715,0.601-1.512,1.139-2.229,1.805c-2.277,2.017-4.423,4.309-6.586,6.505c-2.163,2.163-4.423,4.244-6.489,6.538  c-0.601,0.65-1.155,1.496-1.772,2.229l 28.491,68.871l-0.228,0.114l 0.114,0.212l-68.676,28.444  c-0.536,8.196-0.585,16.343, 0.049,24.427l 68.596,28.411l-0.065,0.212l 0.195,0.081L 96.095,270.602  c 5.383,6.195, 11.123,11.985, 17.27,17.27l 68.66-28.411l 0.081,0.195l 0.195-0.081l 28.46,68.66c 8.196,0.569, 16.328,0.569, 24.443-0.033  l 28.411-68.66l 0.293-0.114l 68.66,28.444c 2.976-2.618, 5.839-5.415, 8.717-8.229c 2.895-2.944, 5.79-5.904, 8.489-9.041l-28.411-68.627  l 0.228-0.081l-0.098-0.261l 68.643-28.411C 390.853,165.107, 390.869,156.958, 390.268,148.795z M 280.674,184.783l-0.098,0.195  l 16.636,40.038c-3.042,3.594-6.456,6.929-10.066,10.131l-40.103-16.587l-0.049,0.098l-0.13-0.033l-16.587,40.071  c-4.733,0.375-9.481,0.375-14.263,0l-16.604-40.054l-0.114,0l-0.065-0.049l-40.087,16.539c-3.577-3.042-6.912-6.407-10.131-10.001  l 16.636-40.12l-0.13-0.049l 0.049-0.147l-40.217-16.685c-0.049-0.503-0.13-1.106-0.163-1.626  c-0.081-1.772-0.016-3.594-0.033-5.383c0-1.772-0.065-3.61, 0.081-5.399c0-0.552, 0.033-1.106, 0.13-1.675l 40.217-16.653l0-0.179  l 0.081-0.049l-16.571-40.087c 3.058-3.577, 6.472-6.912, 10.099-10.001l 40.054,16.587l 0.033-0.163l 0.147,0.049l 16.604-40.087  c 4.814-0.375, 9.563-0.375, 14.279,0l 16.587,40.087l 0.13-0.049l 0.081,0.147l 40.054-16.555c 3.61,3.090, 6.945,6.456, 10.066,10.034  l-16.587,40.054l 0.114,0.081l-0.049,0.147l 40.054,16.587c 0.163,2.406, 0.195,4.879, 0.228,7.236c0,2.341-0.033,4.7-0.195,6.994  L 280.674,184.783z M 223.040,133.948c-14.929,0-27.045,12.099-27.045,27.045c0,14.929, 12.099,27.045, 27.045,27.045s 27.045-12.099, 27.045-27.045  C 250.085,146.063, 237.969,133.948, 223.040,133.948z" data-tags="html5_perfintegration" />
<glyph unicode="&#x35;" d="M 62.125-9.716L 26.25,392.784l 394.625,0 l-35.875-402.5L 223.125-55.216M 99.75,310.535L 100.625,297.409L 112.875,160.909L 284.375,160.909L 278.25,97.034L 223.125,82.159L 168,97.034L 164.5,136.409L 115.5,136.409L 121.625,58.535L 223.125,30.535L 224,30.535L 224,30.776L 324.625,58.535L 325.5,67.284L 336.875,197.659L 338.625,210.784L 158.375,210.784L 154,261.534L 343,261.534L 343.875,272.034L 346.5,297.409L 347.375,310.535z" horiz-adv-x="448" data-tags="HTML5_Badge" />
<glyph unicode="&#xe008;" d="M 224,20.047c-8.38,0-16.76,4.338-25.437,13.016c-3.417,3.417-3.417,8.957,0,12.375c 3.417,3.416, 8.957,3.416, 12.375,0
		C 216.278,40.096, 220.551,37.5, 224,37.5c 3.448,0, 7.722,2.596, 13.063,7.937c 3.418,3.416, 8.957,3.416, 12.375,0
		c 3.417-3.417, 3.417-8.957,0-12.375C 240.76,24.385, 232.38,20.047, 224,20.047zM 0,154.097 C 0,132.269 1.866,112.481 5.6,94.736 C 9.334,76.991 14.584,61.6 21.35,48.566 C 28.116,35.532 36.672,24.108 47.016,14.292 C 57.361,4.477 68.599-3.61 80.733-9.971 C 92.866-16.33 106.749-21.475 122.383-25.399 C 138.016-29.326 153.921-32.074 170.099-33.644 C 186.277-35.215 204.089-36 223.533-36 C 242.977-36 260.826-35.217 277.082-33.646 C 293.338-32.076 309.283-29.327 324.915-25.401 C 340.548-21.475 354.471-16.332 366.682-9.972 C 378.892-3.612 390.21,4.477 400.631,14.291 C 411.054,24.106 419.649,35.53 426.415,48.564 C 433.183,61.599 438.472,76.99 442.283,94.735 C 446.093,112.48 447.999,132.267 447.999,154.095 C 447.999,193.198 435.865,226.882 411.599,255.149 C 412.999,258.919 414.204,263.237 415.215,268.105 C 416.225,272.974 417.198,279.844 418.131,288.717 C 419.066,297.59 418.715,307.837 417.082,319.457 C 415.448,331.079 412.377,342.935 407.865,355.027 L 404.365,355.735 C 402.033,356.206 398.222,356.049 392.933,355.262 C 387.645,354.477 381.461,353.065 374.384,351.023 C 367.307,348.982 358.167,344.938 346.966,338.892 C 335.767,332.847 323.945,325.19 311.5,315.925 C 290.344,322.364 261.179,329.101 224,329.101 C 186.823,329.101 157.578,322.365 136.268,315.926 C 123.823,325.192 111.962,332.808 100.684,338.776 C 89.406,344.744 80.384,348.827 73.617,351.025 C 66.85,353.223 60.589,354.637 54.834,355.264 C 49.078,355.892 45.383,356.089 43.75,355.853 C 42.117,355.618 40.912,355.343 40.134,355.029 C 35.621,342.936 32.511,331.080 30.799,319.458 C 29.088,307.838 28.699,297.63 29.633,288.837 C 30.566,280.042 31.577,273.131 32.666,268.107 C 33.756,263.082 35,258.763 36.4,255.151 C 12.134,227.042 0,193.358 0,154.097 Z M 59.734,104.261 C 59.734,129.645 69.067,152.665 87.734,173.323 C 93.335,179.625 99.83,184.397 107.218,187.634 C 114.607,190.873 123.007,192.712 132.418,193.149 C 141.83,193.587 150.812,193.499 159.368,192.887 C 167.924,192.273 178.502,191.442 191.102,190.392 C 203.701,189.341 214.59,188.816 223.768,188.816 C 232.945,188.816 243.835,189.341 256.434,190.392 C 269.036,191.442 279.613,192.273 288.168,192.887 C 296.726,193.499 305.707,193.587 315.119,193.149 C 324.531,192.711 332.97,190.873 340.436,187.634 C 347.903,184.397 354.436,179.625 360.036,173.323 C 378.702,152.665 388.036,129.645 388.036,104.261 C 388.036,89.38 386.481,76.119 383.369,64.477 C 380.258,52.834 376.33,43.076 371.585,35.199 C 366.841,27.32 360.189,20.666 351.636,15.24 C 343.080,9.812 334.796,5.611 326.786,2.636 C 318.775-0.339 308.43-2.66 295.753-4.323 C 283.073-5.984 271.719-6.993 261.684-7.342 C 251.65-7.692 239.012-7.867 223.768-7.867 C 208.524-7.867 195.924-7.691 185.968-7.342 C 176.012-6.993 164.696-5.984 152.018-4.323 C 139.34-2.66 128.996-0.34 120.984,2.636 C 112.974,5.611 104.69,9.812 96.135,15.24 C 87.579,20.667 80.929,27.32 76.184,35.199 C 71.439,43.076 67.512,52.834 64.401,64.477 C 61.29,76.119 59.734,89.38 59.734,104.261 ZM 112,117.998A28,42 2700 1 1 168,117.99799999999999A28,42 2700 1 1 112,117.99799999999999zM 280,117.998A28,42 2700 1 1 336,117.99799999999999A28,42 2700 1 1 280,117.99799999999999z" data-tags="github, octacat, social" />
<glyph unicode="&#xe00b;" d="M 448,298.942c-16.483-7.31-34.197-12.251-52.789-14.473c 18.975,11.375, 33.55,29.387, 40.413,50.851
	c-17.761-10.534-37.431-18.183-58.367-22.304c-16.765,17.863-40.653,29.024-67.089,29.024c-50.76,0-91.913-41.15-91.913-91.909
	c0-7.204, 0.813-14.219, 2.38-20.947c-76.388,3.834-144.113,40.425-189.445,96.034c-7.912-13.575-12.445-29.363-12.445-46.208
	c0-31.889, 16.226-60.022, 40.889-76.504c-15.067,0.478-29.239,4.612-41.63,11.497c-0.009-0.383-0.009-0.768-0.009-1.156
	c0-44.532, 31.683-81.68, 73.728-90.125c-7.711-2.1-15.832-3.225-24.215-3.225c-5.923,0-11.68,0.578-17.293,1.65
	c 11.697-36.514, 45.64-63.090, 85.86-63.829c-31.456-24.653-71.088-39.346-114.151-39.346c-7.419,0-14.735,0.435-21.926,1.286
	c 40.675-26.079, 88.988-41.297, 140.893-41.297c 169.060,0, 261.51,140.054, 261.51,261.513c0,3.985-0.090,7.948-0.267,11.891
	C 420.096,264.324, 435.678,280.511, 448,298.942z" data-tags="twitter, tweet, social" />
<glyph unicode="&#xe00c;" d="M 385.277,326.786c 11.243-5.502, 21.041-13.338, 28.22-22.961c 15.11-20.256, 19.353-47.85, 12.616-82.016
	c-6.808-34.574-22.057-63.759-44.26-84.894c-4.061-4.245-8.41-8.201-13.039-11.848c-23.781-18.726-53.812-28.625-86.847-28.625
	l-5.299,0 L 176.94,96.443 L 148.693-36l-57.936,0 l 4.413,20.256l 20.181,0 l 28.247,132.443l 82.368,0 c 78.859,0, 144.785,48.597, 162.425,131.222
	C 408.395,341.473, 341.317,384, 283.65,384L 87.090,384 L0-15.744l 66.514,0 L 56-64l 115.351,0 l 28.247,132.443l 82.368,0 
	c 78.859,0, 144.785,48.597, 162.425,131.222C 459.142,268.65, 426.54,309.885, 385.277,326.786z M 184.775,302.589l 56.495,0 
	c 28.259,0, 47.076-24.298, 38.844-54.668c-7.059-30.38-36.481-54.677-65.905-54.677l-54.144,0 L 184.775,302.589z" data-tags="paypal, donate" />
<glyph unicode="&#xe015;" d="M 112-64l0,448 l 224,0 l0-448 l-112,83.776z" />
<glyph unicode="&#x21;" d="M0,160q0,60.928 30.016,112.448t 81.536,81.536t 112.448,30.016t 112.448-30.016t 81.536-81.536t 30.016-112.448t-30.016-112.448t-81.536-81.536t-112.448-30.016t-112.448,30.016t-81.536,81.536t-30.016,112.448zM 189.056,229.888l 13.888-139.776l 42.112,0 l 13.888,139.776l0,84.224 l-69.888,0 l0-84.224 zM 196.224,5.888l 56,0 l0,56 l-56,0 l0-56 z" />
<glyph unicode="&#xe000;" d="M 224.049,384L0,270.766L0,196.304L 224.049,309.536L 448,196.304L 448,270.766zM 224.049,254.026L0,140.792L0,66.329L 224.049,179.561L 448,66.329L 448,140.792zM 224.049,124.015L0,10.781L0-63.682L 224.049,49.55L 448-63.682L 448,10.781z" data-tags="html5_semantics" />
<glyph unicode="&#x25cb;" d="M 266.667,160q0,15.167 -5.906,28.948t-15.969,23.844t-23.844,15.969t-28.948,5.906t-28.948-5.906t-23.844-15.969t-15.969-23.844t-5.906-28.948t 5.906-28.948t 15.969-23.844t 23.844-15.969t 28.948-5.906t 28.948,5.906t 23.844,15.969t 15.969,23.844t 5.906,28.948zM 304,160q0-30.48 -15.020-56.219 t-40.76-40.76t-56.219-15.020t-56.219,15.020t-40.76,40.76t-15.020,56.219t 15.020,56.219t 40.76,40.76t 56.219,15.020t 56.219-15.020t 40.76-40.76t 15.020-56.219z" horiz-adv-x="384" data-tags="circle-blank" />
<glyph unicode="&#xe019;" d="M 124,48q0-15 -10.625-25.5t-25.375-10.5q-15,0 -25.5,10.5t-10.5,25.5t 10.5,25.5t 25.5,10.5q 14.75,0 25.375-10.5t 10.625-25.5zM 232,0q0-13.25 -9.375-22.625t-22.625-9.375t-22.625,9.375t-9.375,22.625t 9.375,22.625t 22.625,9.375t 22.625-9.375t 9.375-22.625zM 80,160q0-16.5 -11.75-28.25t-28.25-11.75t-28.25,11.75t-11.75,28.25 t 11.75,28.25t 28.25,11.75t 28.25-11.75t 11.75-28.25zM 340,48q0-11.5 -8.25-19.75t-19.75-8.25t-19.75,8.25t-8.25,19.75t 8.25,19.75t 19.75,8.25t 19.75-8.25t 8.25-19.75zM 132,272q0-18.25 -12.875-31.125t-31.125-12.875t-31.125,12.875t-12.875,31.125t 12.875,31.125t 31.125,12.875t 31.125-12.875t 12.875-31.125zM 248,320q0-20 -14-34t-34-14 t-34,14t-14,34t 14,34t 34,14t 34-14t 14-34zM 384,160q0-10 -7-17t-17-7t-17,7t-7,17t 7,17t 17,7t 17-7t 7-17zM 332,272q0-8.25 -5.875-14.125t-14.125-5.875t-14.125,5.875t-5.875,14.125t 5.875,14.125t 14.125,5.875t 14.125-5.875t 5.875-14.125z" horiz-adv-x="392" data-tags="spinner, loading, busy, progress" />
<glyph unicode="&#x25b6;" d="M 105.083-10.24l 276.81,170.24l-276.81,170.24l0-340.48 z" />
<glyph unicode="&#x25bc;" d="M 53.76,301.317l 170.24-276.81l 170.24,276.81l-340.48,0 z" />
<glyph unicode="&#x2601;" d="M 340.771,212.886c-6.16,0-12.23-0.538-18.122-1.523c-14.694,48.048-60.211,83.059-114.15,83.059c-65.811,0-119.146-52.147-119.146-116.48
		c0-5.734, 0.448-11.379, 1.277-16.912C 87.472,161.389, 84.291,161.635, 81.021,161.635C 36.288,161.635,0,126.154,0,82.429
		c0-43.747, 36.288-79.206, 81.021-79.206L 192.64,3.222 l0,85.12 L 145.6,88.342 l 78.4,103.040l 78.4-103.040l-47.040,0 l0-85.12 l 85.389,0 c 59.248,0, 107.229,46.95, 107.229,104.832
		C 448,165.958, 399.997,212.886, 340.771,212.886z" data-tags="upload, cloud, load" />
<glyph unicode="&#xe009;" d="M 51.52,160q0,30.464 21.28,51.744t 51.744,21.28q 15.68,0 29.568-6.272l 57.344,56.896q-5.824,13.888 -5.824,27.328q0,30.016 21.28,51.52t 51.744,21.504t 51.744-21.504t 21.28-51.52t-21.28-51.296t-51.744-21.28q-16.576,0 -32.256,7.168l-55.552-55.552q 6.272-13.888 6.272-30.016q0-15.68 -6.272-29.568l 56-56q 15.232,7.168 31.808,7.168q 30.464,0 51.744-21.28t 21.28-51.296t-21.28-51.52 t-51.744-21.504t-51.744,21.504t-21.28,51.52q0,13.888 5.824,27.776l-57.344,56.896q-13.888-6.272 -29.568-6.272q-30.464,0 -51.744,21.28t-21.28,51.296z" />
<glyph unicode="&#xe00d;" d="M 444.010-21.342c 5.334-5.334, 5.334-13.986,0-19.334l-19.334-19.334
	c-5.348-5.334-14-5.334-19.334,0l-135.352,135.352c-1.47,1.47-2.45,3.206-3.108,5.054C 239.12,60.11, 205.030,48, 168,48
	C 75.222,48,0,123.222,0,216C0,308.778, 75.222,384, 168,384c 92.778,0, 168-75.222, 168-168c0-37.030-12.11-71.12-32.396-98.882
	c 1.848-0.658, 3.584-1.624, 5.054-3.108L 444.010-21.342z M 168,328c-61.852,0-112-50.148-112-112c0-61.852, 50.148-112, 112-112s 112,50.148, 112,112
	C 280,277.852, 229.852,328, 168,328z" data-tags="search, zoom, magnifier, magnifying glass" />
<glyph unicode="&#x2714;" d="M 416.64,277.73 394.016,300.358 160.654,64.881 54.015,170.924 31.408,148.265 160.821,19.612 183.48,42.223 183.37,42.333 416.64,277.73 z" />
<glyph unicode="&#x2718;" d="M 377.301,289.658 353.646,313.313 224.005,183.64 94.291,313.313 70.655,289.658 200.315,160.004 70.655,30.344 94.291,6.654 224.005,136.367 353.646,6.654 377.301,30.344 247.642,160.004 377.301,289.658 z" />
<glyph unicode="&#x268f;" d="M 203.422,178.574 L 203.422,276.294 L 105.702,276.294 L 105.702,178.574 L 203.422,178.574 L 203.422,178.574 ZM 342.302,178.574 L 342.302,276.294 L 244.578,276.294 L 244.578,178.574 L 342.302,178.574 L 342.302,178.574 ZM 203.422,43.706 L 203.422,141.426 L 105.702,141.426 L 105.702,43.706 L 203.422,43.706 L 203.422,43.706 ZM 342.302,43.706 L 342.302,141.426 L 244.578,141.426 L 244.578,43.706 L 342.302,43.706 L 342.302,43.706 Z" />
<glyph unicode="&#x261f;" d="M 93.553,311.055L 183.14,311.055L 183.14,199.187L 93.553,199.187zM 237.335,342.995c-54.682,54.682-143.281,54.682-197.976,0c-54.682-54.643-54.682-143.32,0-197.963
			c0,0, 98.929-97.018, 98.929-209.018c0,112, 99.048,209.018, 99.048,209.018C 292.043,199.661, 292.043,288.339, 237.335,342.995z M 205.553,199.213
			c0-44.8,0-44.8-44.787-44.8l-44.8,0 c-44.8,0-44.8,0-44.8,44.8l0,89.6 c0,44.8,0,44.8, 44.8,44.8l 44.8,0 c 44.787,0, 44.787,0, 44.787-44.8L 205.553,199.213 zM 127.733,187.447L 148.986,187.447L 148.986,166.232L 127.733,166.232z" horiz-adv-x="276.706" data-tags="odl" />
<glyph unicode="&#x260e;" d="M0,169.856q0,50.624 30.016,93.408t 81.536,67.872t 112.448,25.088q 60.48,0 112.224-24.864t 81.76-67.648t 30.016-92.96q0-45.696 -23.296-83.776t-62.272-63.168l0-3.136 q-0.448-9.408 5.824-28.224q 7.168-21.952 15.68-39.424l 8.064-17.024q-93.184,26.88 -124.096,51.52q-25.984-3.136 -43.904-3.136q-60.48,0 -112.224,24.864t-81.76,67.648t-30.016,92.96z" />
<glyph unicode="&#xf073;" d="M 32-32l 72,0 l0,72 l-72,0 l0-72 zM 120-32l 80,0 l0,72 l-80,0 l0-72 zM 32,56l 72,0 l0,80 l-72,0 l0-80 zM 120,56l 80,0 l0,80 l-80,0 l0-80 zM 32,152l 72,0 l0,72 l-72,0 l0-72 zM 216-32l 80,0 l0,72 l-80,0 l0-72 zM 120,152l 80,0 l0,72 l-80,0 l0-72 zM 312-32l 72,0 l0,72 l-72,0 l0-72 zM 216,56l 80,0 l0,80 l-80,0 l0-80 z M 128,272l0,72 q0,3.25 -2.375,5.625t-5.625,2.375l-16,0 q-3.25,0 -5.625-2.375t-2.375-5.625l0-72 q0-3.25 2.375-5.625t 5.625-2.375l 16,0 q 3.25,0 5.625,2.375t 2.375,5.625zM 312,56l 72,0 l0,80 l-72,0 l0-80 zM 216,152l 80,0 l0,72 l-80,0 l0-72 zM 312,152l 72,0 l0,72 l-72,0 l0-72 zM 320,272l0,72 q0,3.25 -2.375,5.625t-5.625,2.375l-16,0  q-3.25,0 -5.625-2.375t-2.375-5.625l0-72 q0-3.25 2.375-5.625t 5.625-2.375l 16,0 q 3.25,0 5.625,2.375t 2.375,5.625zM 416,288l0-320 q0-13 -9.5-22.5t-22.5-9.5l-352,0 q-13,0 -22.5,9.5t-9.5,22.5l0,320 q0,13 9.5,22.5t 22.5,9.5l 32,0 l0,24 q0,16.5 11.75,28.25t 28.25,11.75l 16,0 q 16.5,0 28.25-11.75t 11.75-28.25l0-24 l 96,0 l0,24 q0,16.5 11.75,28.25t 28.25,11.75 l 16,0 q 16.5,0 28.25-11.75t 11.75-28.25l0-24 l 32,0 q 13,0 22.5-9.5t 9.5-22.5z" horiz-adv-x="416" data-tags="calendar, date, schedule" />
<glyph unicode="&#xe00a;" d="M 224,70.4c-24.506,0-44.33-20.070-44.33-44.8S 199.494-19.2, 224-19.2c 24.483,0, 44.33,20.070, 44.33,44.8S 248.483,70.4, 224,70.4z M 129.92,120.621l 31.36-31.674
		c 34.63,34.989, 90.787,34.989, 125.44,0l 31.36,31.674C 266.112,173.126, 181.866,173.126, 129.92,120.621z M 67.2,183.99l 31.338-31.674
		c 69.283,69.978, 181.597,69.978, 250.88,0L 380.8,183.99C 294.202,271.462, 153.798,271.462, 67.2,183.99z M 4.48,247.338L 35.84,215.664c 103.936,104.966, 272.406,104.966, 376.32,0
		l 31.36,31.674C 322.291,369.821, 125.709,369.821, 4.48,247.338z" data-tags="signal, feed, news, broadcast" />
<glyph unicode="&#xe00e;" d="M 418.656,107.45l-38.685,34.496c-11.2,9.99-11.2,26.298,0,36.288l 38.685,34.474c 11.2,9.99, 8.198,19.286-6.653,20.698l-51.274,4.861
	c-14.851,1.411-22.848,14.179-17.741,28.381l 27.216,75.757c 5.107,14.202-1.142,19.376-13.866,11.491l-60.502-37.408
	c-12.723-7.885-29.165-3.584-36.534,9.565l-21.93,39.11c-7.347,13.149-19.533,13.216-27.037,0.157L 189.974,329.882
	C 182.47,316.822, 165.222,311.245, 151.648,317.494l-35.84,16.464C 102.211,340.186, 91.773,332.973, 92.579,317.875L 94.528,281.699
	c 0.806-15.075-10.326-30.621-24.73-34.496L 35.19,237.907C 20.787,234.010, 18.144,222.675, 29.344,212.685l 38.685-34.474c 11.2-9.968, 11.2-26.298,0-36.266
	L 29.344,107.494c-11.2-10.013-8.243-19.645, 6.563-21.437l 46.928-5.69c 14.806-1.837, 23.072-15.053, 18.346-29.366l-24.080-72.979
	c-4.726-14.358, 2.016-19.958, 14.963-12.432l 55.171,31.898c 12.97,7.526, 30.374,3.36, 38.707-9.139l 22.915-34.429
	c 8.31-12.566, 20.832-11.85, 27.754,1.523l 20.138,38.797c 6.966,13.395, 23.587,18.861, 36.938,12.163l 38.842-19.421
	c 13.395-6.698, 23.677,0.179, 22.87,15.277l-1.949,36.176c-0.806,15.098, 10.326,30.621, 24.73,34.518l 34.586,9.274
	C 427.213,86.147, 429.856,97.482, 418.656,107.45z M 246.4,66.032L 201.6,66.032 l0,47.040 l 44.8,0 L 246.4,66.032 z M 246.4,137.69L 201.6,137.69 l0,116.48 l 44.8,0 L 246.4,137.69 z" data-tags="new, exclamation, notification" />
<glyph unicode="&#xe0d6;" d="M 362.9,288.058 293.45,288.058 293.45,218.608 310.803,218.608 310.803,191.84 240.297,155.988 240.297,305.403 277.845,305.403 224,379.195 170.155,305.403 207.638,305.403 207.638,126.093 137.19,156.676 137.19,188.708 C 147.529,194.724 154.55,205.756 154.55,218.608 154.55,237.773 139.006,253.328 119.826,253.328 100.58,253.328 85.1,237.773 85.1,218.608 85.1,205.756 92.121,194.724 102.465,188.708 L 102.465,133.86 207.638,88.233 207.638,42.101 C 186.958,35.201 171.911,15.901 171.911-7.171 171.911-35.873 195.228-59.195 224-59.195 252.772-59.195 276.089-35.873 276.089-7.171 276.089,15.901 261.042,35.201 240.297,42.101 L 240.297,117.066 345.55,170.59 345.55,218.608 362.9,218.608 362.9,288.058 z" />
<glyph unicode="&#xf012;" d="M 64,24l0-48 q0-3.5 -2.25-5.75t-5.75-2.25l-48,0 q-3.5,0 -5.75,2.25t-2.25,5.75l0,48 q0,3.5 2.25,5.75t 5.75,2.25l 48,0 q 3.5,0 5.75-2.25t 2.25-5.75zM 160,56l0-80 q0-3.5 -2.25-5.75t-5.75-2.25l-48,0 q-3.5,0 -5.75,2.25t-2.25,5.75l0,80 q0,3.5 2.25,5.75t 5.75,2.25l 48,0 q 3.5,0 5.75-2.25t 2.25-5.75zM 256,120l0-144 q0-3.5 -2.25-5.75t-5.75-2.25l-48,0 q-3.5,0 -5.75,2.25t-2.25,5.75 l0,144 q0,3.5 2.25,5.75t 5.75,2.25l 48,0 q 3.5,0 5.75-2.25t 2.25-5.75zM 352,216l0-240 q0-3.5 -2.25-5.75t-5.75-2.25l-48,0 q-3.5,0 -5.75,2.25t-2.25,5.75l0,240 q0,3.5 2.25,5.75t 5.75,2.25l 48,0 q 3.5,0 5.75-2.25t 2.25-5.75zM 448,344l0-368 q0-3.5 -2.25-5.75t-5.75-2.25l-48,0 q-3.5,0 -5.75,2.25t-2.25,5.75l0,368 q0,3.5 2.25,5.75t 5.75,2.25l 48,0 q 3.5,0 5.75-2.25t 2.25-5.75z" data-tags="signal, bars, stats" />
<glyph unicode="&#xf0ad;" d="M 96,16q0,6.5 -4.75,11.25t-11.25,4.75t-11.25-4.75t-4.75-11.25t 4.75-11.25t 11.25-4.75t 11.25,4.75t 4.75,11.25zM 257,121l-170.5-170.5q-9.25-9.25 -22.5-9.25q-13,0 -22.75,9.25l-26.5,27q-9.5,9 -9.5,22.5q0,13.25 9.5,22.75l 170.25,170.25q 9.75-24.5 28.625-43.375t 43.375-28.625zM 415.5,229.75q0-9.75 -5.75-26.5q-11.75-33.5 -41.125-54.375 t-64.625-20.875q-46.25,0 -79.125,32.875t-32.875,79.125t 32.875,79.125t 79.125,32.875q 14.5,0 30.375-4.125t 26.875-11.625q 4-2.75 4-7t-4-7l-73.25-42.25l0-56 l 48.25-26.75q 1.25,0.75 19.75,12.125t 33.875,20.25t 17.625,8.875q 3.75,0 5.875-2.5t 2.125-6.25z" horiz-adv-x="416" data-tags="wrench, took, fix, preferences, settings, options" />
<glyph unicode="&#xe00f;" d="M 434,174l-72.072,0 c-2.548,18.998-7.714,36.834-14.826,53.102L 392,272c 7.742,0, 14,6.272, 14,14L 406,356 
	c0,7.728-6.258,14-14,14s-14-6.272-14-14l0-70 l-46.284-30.856c-7.126,10.514-15.162,20.048-24.15,28.070C 303.352,339.802, 267.554,384, 224,384
	s-79.352-44.198-83.58-100.786C 131.446,275.206, 123.396,265.672, 116.284,255.144L 70,286L 70,356 c0,7.728-6.272,14-14,14S 42,363.728, 42,356l0-70 c0-7.728, 6.272-14, 14-14
	l 44.898-44.898C 93.786,210.834, 88.62,192.998, 86.072,174L 14,174 c-7.728,0-14-6.258-14-14s 6.272-14, 14-14l 72.002,0 c 1.554-11.676, 4.158-50.89, 7.518-61.6
	l-40.838-51.072C 46.592,31.788, 42,26.552, 42,20l0-70 c0-7.742, 6.272-14, 14-14s 14,6.258, 14,14l0,70 l 35.294,35.294C 128.926,8.87, 170.044-22, 217-22
	c 2.366,0, 4.662,0.42, 7,0.588C 226.338-21.58, 228.634-22, 231-22c 46.956,0, 88.074,30.87, 111.706,77.294L 378,20l0-70 c0-7.742, 6.258-14, 14-14
	s 14,6.258, 14,14l0,70 c0,6.552-4.592,11.788-10.668,13.314L 354.48,84.4c 3.36,10.724, 5.964,49.924, 7.518,61.6L 434,146 c 7.742,0, 14,6.258, 14,14
	S 441.742,174, 434,174z" data-tags="bug, virus" />
<glyph unicode="&#x25b3;" d="M 434-64l-14,0 l0,14 q0,5.688 -4.156,9.844t-9.844,4.156t-9.844-4.156t-4.156-9.844l0-14 l-28,0 l0,42 q0,5.688 -4.156,9.844t-9.844,4.156t-9.844-4.156t-4.156-9.844l0-42 l-28,0 l0,14 q0,5.688 -4.156,9.844t-9.844,4.156t-9.844-4.156t-4.156-9.844l0-14 l-28,0 l0,42 q0,5.688 -4.156,9.844t-9.844,4.156t-9.844-4.156t-4.156-9.844l0-42 l-28,0 l0,14 
q0,5.688 -4.156,9.844t-9.844,4.156t-9.844-4.156t-4.156-9.844l0-14 l-28,0 l0,42 q0,5.688 -4.156,9.844t-9.844,4.156t-9.844-4.156t-4.156-9.844l0-42 l-28,0 l0,14 q0,5.688 -4.156,9.844t-9.844,4.156t-9.844-4.156t-4.156-9.844l0-14 l-42,0 q-5.688,0 -9.844,4.156t-4.156,9.844l 434,434q 5.688,0 9.844-4.156t 4.156-9.844l0-420 q0-5.688 -4.156-9.844
t-9.844-4.156zM 364,174q0,5.688 -4.156,9.844t-9.844,4.156l-154-154q0-5.688 4.156-9.844t 9.844-4.156l 140,0 q 5.688,0 9.844,4.156t 4.156,9.844l0,140 z" data-tags="triangle" />
<glyph unicode="&#xf002;" d="M 434,76l-42,0 l0,28 l 42,0 q 5.688,0 9.844-4.156t 4.156-9.844t-4.156-9.844t-9.844-4.156zM 434,132l-42,0 l0,28 l 42,0 q 5.688,0 9.844-4.156t 4.156-9.844t-4.156-9.844t-9.844-4.156zM 434,188l-42,0 l0,28 l 42,0 q 5.688,0 9.844-4.156t 4.156-9.844t-4.156-9.844t-9.844-4.156zM 434,244l-42,0 l0,28 l 42,0 q 5.688,0 9.844-4.156t 4.156-9.844
t-4.156-9.844t-9.844-4.156zM 350-64q-5.688,0 -9.844,4.156t-4.156,9.844l0,42 l 28,0 l0-42 q0-5.688 -4.156-9.844t-9.844-4.156zM 336,20l-196,0 q-11.375,0 -19.688,8.313t-8.313,19.688l0,196 q0,11.375 8.313,19.688t 19.688,8.313l 196,0 q 11.813,0 19.906-8.094t 8.094-19.906l0-196 q0-11.813 -8.094-19.906t-19.906-8.094zM 336,342q0,5.688 4.156,9.844t 9.844,4.156
t 9.844-4.156t 4.156-9.844l0-42 l-28,0 l0,42 zM 280,342q0,5.688 4.156,9.844t 9.844,4.156t 9.844-4.156t 4.156-9.844l0-42 l-28,0 l0,42 zM 224,342q0,5.688 4.156,9.844t 9.844,4.156t 9.844-4.156t 4.156-9.844l0-42 l-28,0 l0,42 zM 168,342q0,5.688 4.156,9.844t 9.844,4.156t 9.844-4.156t 4.156-9.844l0-42 l-28,0 l0,42 zM 112,342q0,5.688 4.156,9.844t 9.844,4.156
t 9.844-4.156t 4.156-9.844l0-42 l-28,0 l0,42 zM 28,34q0,5.688 4.156,9.844t 9.844,4.156l 42,0 l0-28 l-42,0 q-5.688,0 -9.844,4.156t-4.156,9.844zM 28,90q0,5.688 4.156,9.844t 9.844,4.156l 42,0 l0-28 l-42,0 q-5.688,0 -9.844,4.156t-4.156,9.844zM 28,146q0,5.688 4.156,9.844t 9.844,4.156l 42,0 l0-28 l-42,0 q-5.688,0 -9.844,4.156t-4.156,9.844zM 28,202
q0,5.688 4.156,9.844t 9.844,4.156l 42,0 l0-28 l-42,0 q-5.688,0 -9.844,4.156t-4.156,9.844zM 28,258q0,5.688 4.156,9.844t 9.844,4.156l 42,0 l0-28 l-42,0 q-5.688,0 -9.844,4.156t-4.156,9.844zM 140-50q0-5.688 -4.156-9.844t-9.844-4.156t-9.844,4.156t-4.156,9.844l0,42 l 28,0 l0-42 zM 196-50q0-5.688 -4.156-9.844t-9.844-4.156t-9.844,4.156t-4.156,9.844l0,42 
l 28,0 l0-42 zM 252-50q0-5.688 -4.156-9.844t-9.844-4.156t-9.844,4.156t-4.156,9.844l0,42 l 28,0 l0-42 zM 308-50q0-5.688 -4.156-9.844t-9.844-4.156t-9.844,4.156t-4.156,9.844l0,42 l 28,0 l0-42 zM 448,34q0-5.688 -4.156-9.844t-9.844-4.156l-42,0 l0,28 l 42,0 q 5.688,0 9.844-4.156t 4.156-9.844z" data-tags="uniF002" />
<glyph unicode="&#xe010;" d="M 336,30.080L 44.8,30.080 l0,201.6 l 58.128,0 c0,0, 15.434,20.070, 48.608,44.8L 22.4,276.48 c-12.365,0-22.4-10.035-22.4-22.4l0-246.4 c0-12.387, 10.035-22.4, 22.4-22.4l 336,0 c 12.387,0, 22.4,10.013, 22.4,22.4l0,83.91 
		l-44.8-36.848L 336,30.080 z M 299.309,185.76l0-79.52 L 448,222.742L 299.309,334.72l0-70.112 C 118.72,264.586, 118.72,86.080, 118.72,86.080C 169.837,170.035, 201.286,185.76, 299.309,185.76z" data-tags="export, share, outside" />
<glyph unicode="&#xf065;" d="M 188.75,120q0-3.25 -2.5-5.75l-83-83l 36-36q 4.75-4.75 4.75-11.25t-4.75-11.25t-11.25-4.75l-112,0 q-6.5,0 -11.25,4.75t-4.75,11.25l0,112 q0,6.5 4.75,11.25t 11.25,4.75t 11.25-4.75l 36-36l 83,83q 2.5,2.5 5.75,2.5t 5.75-2.5l 28.5-28.5q 2.5-2.5 2.5-5.75zM 384,336l0-112 q0-6.5 -4.75-11.25t-11.25-4.75t-11.25,4.75l-36,36l-83-83 q-2.5-2.5 -5.75-2.5t-5.75,2.5l-28.5,28.5q-2.5,2.5 -2.5,5.75t 2.5,5.75l 83,83l-36,36q-4.75,4.75 -4.75,11.25t 4.75,11.25t 11.25,4.75l 112,0 q 6.5,0 11.25-4.75t 4.75-11.25z" horiz-adv-x="384" data-tags="resize-full, expand, enlarge" />
<glyph unicode="&#xf085;" d="M 224,160q0,26.5 -18.75,45.25t-45.25,18.75t-45.25-18.75t-18.75-45.25t 18.75-45.25t 45.25-18.75t 45.25,18.75t 18.75,45.25zM 416,32q0,13 -9.5,22.5t-22.5,9.5t-22.5-9.5t-9.5-22.5q0-13.25 9.375-22.625t 22.625-9.375t 22.625,9.375t 9.375,22.625zM 416,288q0,13 -9.5,22.5t-22.5,9.5t-22.5-9.5t-9.5-22.5q0-13.25 9.375-22.625t 22.625-9.375 t 22.625,9.375t 9.375,22.625zM 320,182.75l0-46.25 q0-2.5 -1.75-4.875t-4-2.625l-38.75-6q-2.75-8.75 -8-19q 8.5-12 22.5-28.75q 1.75-2.5 1.75-5q0-3 -1.75-4.75q-5.75-7.5 -20.625-22.375t-19.625-14.875q-2.75,0 -5.25,1.75l-28.75,22.5q-9.25-4.75 -19.25-7.75q-2.75-27 -5.75-38.75q-1.75-6 -7.5-6l-46.5,0 q-2.75,0 -5,1.875t-2.5,4.375 l-5.75,38.25q-8.5,2.5 -18.75,7.75l-29.5-22.25q-1.75-1.75 -5-1.75q-2.75,0 -5.25,2q-36,33.25 -36,40q0,2.25 1.75,4.75q 2.5,3.5 10.25,13.25t 11.75,15.25q-5.75,11 -8.75,20.5l-38,6q-2.5,0.25 -4.25,2.375t-1.75,4.875l0,46.25 q0,2.5 1.75,4.875t 4,2.625l 38.75,6q 2.75,8.75 8,19q-8.5,12 -22.5,28.75q-1.75,2.75 -1.75,5q0,3 1.75,5q 5.5,7.5 20.5,22.25t 19.75,14.75q 2.75,0 5.25-1.75 l 28.75-22.5q 8.5,4.5 19.25,8q 2.75,27 5.75,38.5q 1.75,6 7.5,6l 46.5,0 q 2.75,0 5-1.875t 2.5-4.375l 5.75-38.25q 8.5-2.5 18.75-7.75l 29.5,22.25q 2,1.75 5,1.75q 2.75,0 5.25-2q 36-33.25 36-40q0-2.25 -1.75-4.75q-3-4 -10.5-13.5t-11.25-15q 5.75-12 8.5-20.5l 38-5.75q 2.5-0.5 4.25-2.625t 1.75-4.875zM 480,49.5l0-35 q0-4 -37.25-7.75 q-3-6.75 -7.5-13q 12.75-28.25 12.75-34.5q0-1 -1-1.75q-30.5-17.75 -31-17.75q-2,0 -11.5,11.75t-13,17q-5-0.5 -7.5-0.5t-7.5,0.5q-3.5-5.25 -13-17t-11.5-11.75q-0.5,0 -31,17.75q-1,0.75 -1,1.75q0,6.25 12.75,34.5q-4.5,6.25 -7.5,13q-37.25,3.75 -37.25,7.75l0,35 q0,4 37.25,7.75q 3.25,7.25 7.5,13q-12.75,28.25 -12.75,34.5q0,1 1,1.75q 1,0.5 8.75,5 t 14.75,8.5t 7.5,4q 2,0 11.5-11.625t 13-16.875q 5,0.5 7.5,0.5t 7.5-0.5q 12.75,17.75 23,28l 1.5,0.5q 1,0 31-17.5q 1-0.75 1-1.75q0-6.25 -12.75-34.5q 4.25-5.75 7.5-13q 37.25-3.75 37.25-7.75zM 480,305.5l0-35 q0-4 -37.25-7.75q-3-6.75 -7.5-13q 12.75-28.25 12.75-34.5q0-1 -1-1.75q-30.5-17.75 -31-17.75q-2,0 -11.5,11.75t-13,17 q-5-0.5 -7.5-0.5t-7.5,0.5q-3.5-5.25 -13-17t-11.5-11.75q-0.5,0 -31,17.75q-1,0.75 -1,1.75q0,6.25 12.75,34.5q-4.5,6.25 -7.5,13q-37.25,3.75 -37.25,7.75l0,35 q0,4 37.25,7.75q 3.25,7.25 7.5,13q-12.75,28.25 -12.75,34.5q0,1 1,1.75q 1,0.5 8.75,5t 14.75,8.5t 7.5,4q 2,0 11.5-11.625t 13-16.875q 5,0.5 7.5,0.5t 7.5-0.5q 12.75,17.75 23,28l 1.5,0.5q 1,0 31-17.5 q 1-0.75 1-1.75q0-6.25 -12.75-34.5q 4.25-5.75 7.5-13q 37.25-3.75 37.25-7.75z" horiz-adv-x="480" data-tags="cogs, settings, options, preferences, gears" />
<glyph unicode="&#x20;" horiz-adv-x="224" />
</font>
</defs>
</svg>
