<?xml version="1.0" standalone="no"?>
<!DOCTYPE svg PUBLIC "-//W3C//DTD SVG 1.1//EN" "http://www.w3.org/Graphics/SVG/1.1/DTD/svg11.dtd" >
<svg xmlns="http://www.w3.org/2000/svg">
<metadata>Generated by IcoMoon</metadata>
<defs>
<font id="html5test" horiz-adv-x="1024">
<font-face units-per-em="1024" ascent="960" descent="-64" />
<missing-glyph horiz-adv-x="1024" />
<glyph unicode="&#x20;" d="" horiz-adv-x="512" />
<glyph unicode="&#x21;" d="M0 448q0 139.264 68.608 257.024t186.368 186.368 257.024 68.608 257.024-68.608 186.368-186.368 68.608-257.024-68.608-257.024-186.368-186.368-257.024-68.608-257.024 68.608-186.368 186.368-68.608 257.024zM432.128 607.744l31.744-319.488h96.256l31.744 319.488v192.512h-159.744v-192.512zM448.512 95.744h128v128h-128v-128z" />
<glyph unicode="&#x35;" d="M142 60.078l-82 920h902l-82-920-370-104M228 792.080l2-30.002 28-312h392l-14-146-126-34-126 34-8 90h-112l14-177.998 232-64h2v0.551l230 63.449 2 19.998 26 298 4 30h-412l-10 116h432l2 24 6 58 2 30.002z" />
<glyph unicode="&#x25b3;" d="M992-64h-32v32q0 13.001-9.499 22.501t-22.501 9.499-22.501-9.499-9.499-22.501v-32h-64v96q0 13.001-9.499 22.501t-22.501 9.499-22.501-9.499-9.499-22.501v-96h-64v32q0 13.001-9.499 22.501t-22.501 9.499-22.501-9.499-9.499-22.501v-32h-64v96q0 13.001-9.499 22.501t-22.501 9.499-22.501-9.499-9.499-22.501v-96h-64v32q0 13.001-9.499 22.501t-22.501 9.499-22.501-9.499-9.499-22.501v-32h-64v96q0 13.001-9.499 22.501t-22.501 9.499-22.501-9.499-9.499-22.501v-96h-64v32q0 13.001-9.499 22.501t-22.501 9.499-22.501-9.499-9.499-22.501v-32h-96q-13.001 0-22.501 9.499t-9.499 22.501l992 992q13.001 0 22.501-9.499t9.499-22.501v-960q0-13.001-9.499-22.501t-22.501-9.499zM832 480q0 13.001-9.499 22.501t-22.501 9.499l-352-352q0-13.001 9.499-22.501t22.501-9.499h320q13.001 0 22.501 9.499t9.499 22.501v320z" />
<glyph unicode="&#x25b6;" d="M240.19 58.88l632.709 389.12-632.709 389.12v-778.24z" />
<glyph unicode="&#x25bc;" d="M122.88 771.010l389.12-632.709 389.12 632.709h-778.24z" />
<glyph unicode="&#x25cb;" d="M609.525 448q0 34.667-13.499 66.167t-36.501 54.501-54.501 36.501-66.167 13.499-66.167-13.499-54.501-36.501-36.501-54.501-13.499-66.167 13.499-66.167 36.501-54.501 54.501-36.501 66.167-13.499 66.167 13.499 54.501 36.501 36.501 54.501 13.499 66.167zM694.857 448q0-69.669-34.331-128.501t-93.166-93.166-128.501-34.331-128.501 34.331-93.166 93.166-34.331 128.501 34.331 128.501 93.166 93.166 128.501 34.331 128.501-34.331 93.166-93.166 34.331-128.501z" horiz-adv-x="878" />
<glyph unicode="&#x2601;" d="M778.905 568.882c-14.080 0-27.954-1.23-41.422-3.481-33.586 109.824-137.625 189.849-260.914 189.849-150.425 0-272.334-119.193-272.334-266.24 0-13.106 1.024-26.009 2.919-38.656-7.218 0.821-14.489 1.383-21.963 1.383-102.247 0-185.191-81.099-185.191-181.042 0-99.993 82.944-181.042 185.191-181.042l255.129-0.002v194.56h-107.52l179.2 235.52 179.2-235.52h-107.52v-194.56h195.175c135.424 0 245.095 107.314 245.095 239.616 0.050 132.352-109.671 239.616-245.045 239.616z" />
<glyph unicode="&#x260e;" d="M0 470.528q0 115.712 68.608 213.504t186.368 155.136 257.024 57.344q138.24 0 256.512-56.832t186.88-154.624 68.608-212.48q0-104.448-53.248-191.488t-142.336-144.384v-7.168q-1.024-21.504 13.312-64.512 16.384-50.176 35.84-90.112l18.432-38.912q-212.992 61.44-283.648 117.76-59.392-7.168-100.352-7.168-138.24 0-256.512 56.832t-186.88 154.624-68.608 212.48z" />
<glyph unicode="&#x261f;" d="M213.835 793.269h204.77v-255.698h-204.77zM542.48 866.274c-124.987 124.987-327.499 124.987-452.517 0-124.987-124.898-124.987-327.589 0-452.487 0 0 226.123-221.755 226.123-477.755 0 256 226.395 477.755 226.395 477.755 125.045 124.866 125.045 327.559-0.002 452.487zM469.835 537.63c0-102.4 0-102.4-102.37-102.4h-102.4c-102.4 0-102.4 0-102.4 102.4v204.8c0 102.4 0 102.4 102.4 102.4h102.4c102.37 0 102.37 0 102.37-102.4v-204.8zM291.961 510.736h48.578v-48.491h-48.578z" horiz-adv-x="631" />
<glyph unicode="&#x268f;" d="M464.965 490.455v223.36h-223.36v-223.36h223.36zM782.405 490.455v223.36h-223.369v-223.36h223.369zM464.965 182.185v223.36h-223.36v-223.36h223.36zM782.405 182.185v223.36h-223.369v-223.36h223.369z" />
<glyph unicode="&#x2714;" d="M952.32 717.097l-51.712 51.721-533.399-538.233-243.746 242.384-51.673-51.792 295.801-294.064 51.792 51.682-0.251 0.251 533.189 538.050z" />
<glyph unicode="&#x2718;" d="M862.402 744.361l-54.069 54.069-296.322-296.395-296.489 296.395-54.025-54.069 296.366-296.352-296.366-296.366 54.025-54.149 296.489 296.487 296.322-296.487 54.069 54.149-296.363 296.366 296.363 296.352z" />
<glyph unicode="&#xe000;" d="M512.112 960l-512.112-258.821v-170.199l512.112 258.816 511.888-258.816v170.199zM512.112 662.917l-512.112-258.821v-170.201l512.112 258.816 511.888-258.816v170.201zM512.112 365.749l-512.112-258.821v-170.201l512.112 258.816 511.888-258.816v170.201z" />
<glyph unicode="&#xe001;" d="M769.76 381.419h127.12v305.223l-143.218 143.218-89.89-89.89 105.989-105.989v-252.562zM897.216 317.694h-443.408l-105.989 105.989 44.946 44.946 87.541-87.541h180.114l-177.431 177.767 45.28 45.28 177.431-177.431v180.114l-87.205 87.205 44.61 44.61-220.368 221.367h-442.738l126.784-126.784v-0.336h262.96l92.91-92.91-135.84-135.84-92.91 92.91v72.114h-127.12v-124.77l220.030-220.030-89.554-89.554 143.218-143.218h623.522l-126.784 126.112z" />
<glyph unicode="&#xe002;" d="M555.058 972.8l-263.035-84.834 569.979-184.592v-363.646l-379.842-122.777-320.59 103.591v356.4l309.931-100.187 263.035 84.839-570.834 185.019-163.703-53.289v-590.443l482.16-156.027 541.84 175.214v599.394z" />
<glyph unicode="&#xe003;" d="M152.391 960l-34.379-171.906h699.703l-21.838-111.040h-700.165l-33.918-171.906h699.703l-39.029-196.066-282.018-93.385-244.386 93.385 16.727 85.024h-171.906l-40.885-206.286 404.21-154.715 466.005 154.715 61.792 310.357 12.544 62.258 79.449 399.566z" />
<glyph unicode="&#xe004;" d="M743.221 752.215l207.785 207.785h-222.715l-215.664-215.664-216.087 215.664h-222.715l207.785-207.785h-281.609v-758.562h370.368l141.429 141.429 141.429-141.429h370.779l-0.005 758.562h-280.779zM512.208 358.208l-206.539-206.955h-148.064l-0.005 443.358h709.623v-443.358h-148.064l-206.951 206.955z" />
<glyph unicode="&#xe005;" d="M1023.579 960h-225.829l-159.799-159.381h225.824zM513.049 800.619l159.385 159.381h-225.826l-159.803-159.381zM864.197 335.086h-704.816v463.851l161.486 161.063h-226.245l-94.622-94.622v-690.096h1024v625.337h-159.803z" />
<glyph unicode="&#xe006;" d="M1024 684.937h-166.432c-68.242 163.993-230.841 275.063-411.55 275.063-245.815 0-446.018-199.854-446.018-446.018 0-246.165 200.203-446.37 446.018-446.37 180.704 0 342.96 110.72 411.55 275.063h166.082l0.002 342.263zM891.691 475.33h-445.673c-21.239 0-38.647 17.061-38.647 38.647 0 21.239 17.061 38.647 38.647 38.647h445.326v-77.294zM446.018 199.92c-173.045 0-313.71 140.665-313.71 313.71 0 173.045 140.665 313.71 313.71 313.71 107.241 0 205.776-55.71 262.875-142.754h-262.875c-94.009 0-170.955-76.601-170.955-170.955 0-94.009 76.601-170.955 170.955-170.955h262.875c-56.752-87.045-155.287-142.754-262.875-142.754z" />
<glyph unicode="&#xe007;" d="M1012.551 534.832l-149.134 61.854 61.406 148.274c-15.687 21.931-32.638 42.672-51.296 61.557-1.113 1.189-2.231 2.416-3.419 3.605-1.895 1.895-3.977 3.717-6.059 5.648-18.249 17.918-38.325 34.16-59.474 49.401l-148.274-61.328-61.817 149.095c-53.714 9.070-107.906 9.294-160.359 1.301-0.969-0.112-1.783-0.185-2.565-0.261-2.267-0.336-4.462-0.818-6.505-1.301l-61.813-148.761-149.131 61.705c-44.53-31.781-83.227-69.993-114.823-113.15-0.297-0.446-0.67-0.894-1.006-1.374-1.301-1.783-2.565-3.641-3.79-5.536l61.593-148.686-149.095-61.895c-8.921-53.714-9.221-107.758-1.301-160.171 0.112-0.93 0.185-1.931 0.373-2.825 0.261-2.194 0.709-4.311 1.113-6.469l148.907-61.63-61.593-148.647c14.16-19.851 29.44-38.882 46.055-56.315 2.937-3.088 5.723-6.32 8.809-9.369 2.119-2.194 4.535-4.201 6.802-6.32 17.918-17.433 37.653-33.23 58.361-48.062l148.574 61.557 61.63-148.871c2.194-0.446 4.535-0.857 6.766-1.374 0.521 0.075 1.189-0.037 1.746-0.112 52.67-8.103 106.981-7.842 161.063 1.15l61.778 149.131 148.759-61.63c1.931 1.15 3.829 2.455 5.648 3.829 0.558 0.336 1.113 0.818 1.746 1.301 42.784 31.447 80.96 69.957 112.704 114.375l-61.778 149.207 148.907 61.63c0.373 2.119 0.857 4.386 1.262 6.69 0.075 0.67 0.075 1.374 0.185 2.043 8.263 52.603 8.039 106.8-0.955 160.734zM892.041 422.389l-156.937-65.015 0.224-0.597-0.521-0.185 65.051-156.862c-12.117-14.123-25.314-27.209-39.511-39.511l-156.937 64.939-0.185-0.521-0.521 0.261-64.978-156.862c-18.549-1.374-37.061-1.301-55.833-0.075l-65.051 156.937-0.446-0.185-0.261 0.597-157.419-65.234c-1.634 1.374-3.456 2.603-5.095 4.126-5.205 4.61-10.11 9.849-15.054 14.869-4.944 4.944-10.11 9.701-14.832 14.944-1.374 1.486-2.64 3.419-4.050 5.095l65.122 157.419-0.521 0.261 0.261 0.485-156.974 65.015c-1.225 18.734-1.337 37.355 0.112 55.833l156.791 64.939-0.149 0.485 0.446 0.185-65.127 157.074c12.304 14.16 25.424 27.394 39.474 39.474l156.937-64.939 0.185 0.446 0.446-0.185 65.051 156.937c18.734 1.301 37.321 1.301 55.87-0.075l64.939-156.937 0.67-0.261 156.937 65.015c6.802-5.984 13.346-12.377 19.925-18.809 6.617-6.729 13.234-13.495 19.403-20.665l-64.939-156.862 0.521-0.185-0.224-0.597 156.898-64.939c1.639-18.549 1.675-37.175 0.302-55.833zM641.541 504.647l-0.224 0.446 38.025 91.515c-6.953 8.215-14.757 15.838-23.008 23.157l-91.664-37.913-0.112 0.224-0.297-0.075-37.913 91.591c-10.818 0.857-21.671 0.857-32.601 0l-37.952-91.552h-0.261l-0.149-0.112-91.627 37.803c-8.176-6.953-15.799-14.645-23.157-22.859l38.025-91.703-0.297-0.112 0.112-0.336-91.925-38.137c-0.112-1.15-0.297-2.528-0.373-3.717-0.185-4.050-0.037-8.215-0.075-12.304 0-4.050-0.149-8.251 0.185-12.341 0-1.262 0.075-2.528 0.297-3.829l91.925-38.064v-0.409l0.185-0.112-37.877-91.627c6.99-8.176 14.793-15.799 23.083-22.859l91.552 37.913 0.075-0.373 0.336 0.112 37.952-91.627c11.003-0.857 21.858-0.857 32.638 0l37.913 91.627 0.297-0.112 0.185 0.336 91.552-37.84c8.251 7.063 15.874 14.757 23.008 22.935l-37.913 91.552 0.261 0.185-0.112 0.336 91.552 37.913c0.373 5.499 0.446 11.152 0.521 16.539 0 5.351-0.075 10.743-0.446 15.986l-91.698 37.842zM509.806 388.453c-34.123 0-61.817 27.655-61.817 61.817 0 34.123 27.655 61.817 61.817 61.817s61.817-27.655 61.817-61.817c0-34.126-27.694-61.817-61.817-61.817z" />
<glyph unicode="&#xe008;" d="M512 128.107c-19.154 0-38.309 9.915-58.142 29.751-7.81 7.81-7.81 20.473 0 28.286 7.81 7.808 20.473 7.808 28.286 0 12.206-12.21 21.973-18.144 29.856-18.144 7.881 0 17.65 5.934 29.858 18.142 7.813 7.808 20.473 7.808 28.286 0 7.81-7.81 7.81-20.473 0-28.286-19.835-19.833-38.99-29.749-58.144-29.749zM0 434.507c0-49.893 4.265-95.122 12.8-135.682s20.535-75.739 36-105.531c15.465-29.792 35.022-55.904 58.665-78.341 23.646-22.434 49.333-40.919 77.067-55.458 27.733-14.535 59.465-26.295 95.2-35.264 35.733-8.976 72.087-15.257 109.065-18.846 36.978-3.591 77.691-5.385 122.135-5.385 44.443 0 85.241 1.79 122.398 5.381 37.157 3.589 73.602 9.872 109.333 18.846 35.733 8.974 67.557 20.729 95.467 35.266 27.909 14.537 53.778 33.026 77.598 55.458 23.824 22.434 43.47 48.546 58.935 78.338 15.47 29.794 27.559 64.974 36.27 105.534 8.709 40.56 13.065 85.787 13.065 135.68 0 89.378-27.735 166.37-83.2 230.981 3.2 8.617 5.954 18.487 8.265 29.614 2.309 11.129 4.533 26.832 6.665 47.113 2.137 20.281 1.335 43.703-2.398 70.263-3.735 26.565-10.754 53.664-21.067 81.303l-8 1.618c-5.33 1.077-14.041 0.718-26.13-1.081-12.087-1.794-26.222-5.022-42.398-9.689-16.176-4.665-37.067-13.909-62.67-27.728-25.598-13.817-52.619-31.319-81.065-52.496-48.357 14.718-115.019 30.117-200 30.117-84.976 0-151.822-15.397-200.53-30.114-28.446 21.179-55.557 38.587-81.335 52.229-25.778 13.641-46.4 22.974-61.867 27.998-15.467 5.024-29.778 8.256-42.933 9.689-13.157 1.435-21.602 1.886-25.335 1.346-3.733-0.537-6.487-1.166-8.265-1.883-10.315-27.641-17.424-54.741-21.337-81.305-3.911-26.56-4.8-49.893-2.665-69.991 2.133-20.103 4.443-35.899 6.933-47.383 2.491-11.486 5.335-21.358 8.535-29.614-55.465-64.249-83.2-141.241-83.2-230.981zM136.535 320.597c0 58.021 21.333 110.638 64 157.856 12.802 14.405 27.648 25.312 44.535 32.711 16.889 7.403 36.089 11.607 57.6 12.606 21.513 1.001 42.043 0.8 61.6-0.599 19.557-1.403 43.735-3.303 72.535-5.703 28.798-2.402 53.687-3.602 74.665-3.602 20.976 0 45.867 1.2 74.665 3.602 28.805 2.4 52.981 4.299 72.535 5.703 19.561 1.399 40.089 1.6 61.602 0.599 21.513-1.001 40.802-5.202 57.867-12.606 17.067-7.399 32-18.306 44.8-32.711 42.665-47.218 64-99.835 64-157.856 0-34.014-3.554-64.325-10.667-90.935-7.111-26.613-16.089-48.917-26.935-66.921-10.843-18.009-26.048-33.218-45.598-45.621-19.557-12.407-38.491-22.009-56.8-28.809-18.311-6.8-41.957-12.105-70.933-15.906-28.983-3.797-54.935-6.103-77.872-6.901-22.935-0.8-51.822-1.2-86.665-1.2-34.843 0-63.643 0.402-86.4 1.2-22.757 0.798-48.622 3.104-77.6 6.901-28.978 3.801-52.622 9.104-70.935 15.906-18.309 6.8-37.243 16.402-56.798 28.809-19.557 12.405-34.757 27.611-45.602 45.621-10.846 18.005-19.822 40.309-26.933 66.921-7.111 26.61-10.667 56.921-10.667 90.935zM256 351.995c0-53.019 28.654-96 64-96s64 42.981 64 96c0 53.019-28.654 96-64 96-35.346 0-64-42.981-64-96zM640 351.995c0-53.019 28.654-96 64-96s64 42.981 64 96c0 53.019-28.654 96-64 96-35.346 0-64-42.981-64-96z" />
<glyph unicode="&#xe009;" d="M117.76 448q0 69.632 48.64 118.272t118.272 48.64q35.84 0 67.584-14.336l131.072 130.048q-13.312 31.744-13.312 62.464 0 68.608 48.64 117.76t118.272 49.152 118.272-49.152 48.64-117.76-48.64-117.248-118.272-48.64q-37.888 0-73.728 16.384l-126.976-126.976q14.336-31.744 14.336-68.608 0-35.84-14.336-67.584l128-128q34.816 16.384 72.704 16.384 69.632 0 118.272-48.64t48.64-117.248-48.64-117.76-118.272-49.152-118.272 49.152-48.64 117.76q0 31.744 13.312 63.488l-131.072 130.048q-31.744-14.336-67.584-14.336-69.632 0-118.272 48.64t-48.64 117.248z" />
<glyph unicode="&#xe00a;" d="M512 243.2c-56.014 0-101.326-45.874-101.326-102.4s45.312-102.4 101.326-102.4c55.961 0 101.326 45.874 101.326 102.4s-45.365 102.4-101.326 102.4zM296.96 357.991l71.68-72.398c79.154 79.975 207.513 79.975 286.72 0l71.68 72.398c-118.784 120.011-311.346 120.011-430.080 0zM153.6 502.834l71.63-72.398c158.361 159.95 415.079 159.95 573.44 0l71.73 72.398c-197.938 199.936-518.862 199.936-716.8 0zM10.24 647.63l71.68-72.398c237.568 239.922 622.642 239.922 860.16 0l71.68 72.398c-277.095 279.961-726.425 279.961-1003.52 0z" />
<glyph unicode="&#xe00b;" d="M1024 765.582c-37.675-16.709-78.165-28.002-120.661-33.081 43.371 26 76.686 67.17 92.373 116.231-40.597-24.078-85.557-41.561-133.41-50.981-38.32 40.83-92.921 66.341-153.346 66.341-116.023 0-210.087-94.057-210.087-210.078 0-16.466 1.858-32.501 5.44-47.879-174.601 8.763-329.401 92.4-433.017 219.506-18.085-31.029-28.446-67.115-28.446-105.618 0-72.889 37.088-137.193 93.461-174.866-34.439 1.093-66.832 10.542-95.154 26.279-0.021-0.875-0.021-1.755-0.021-2.642 0-101.787 72.418-186.697 168.521-206-17.625-4.8-36.187-7.371-55.349-7.371-13.538 0-26.697 1.321-39.527 3.771 26.736-83.461 104.32-144.206 196.251-145.895-71.899-56.35-162.487-89.934-260.917-89.934-16.958 0-33.68 0.994-50.117 2.939 92.971-59.609 203.401-94.393 322.041-94.393 386.423 0 597.737 320.123 597.737 597.744 0 9.109-0.206 18.167-0.61 27.179 41.056 29.621 76.672 66.619 104.837 108.747z" />
<glyph unicode="&#xe00c;" d="M880.633 829.225c25.698-12.576 48.094-30.487 64.503-52.482 34.537-46.299 44.235-109.371 28.837-187.465-15.561-79.026-50.416-145.735-101.166-194.043-9.282-9.703-19.223-18.745-29.803-27.081-54.357-42.802-122.999-65.429-198.507-65.429l-240.062 0.002-64.565-302.727h-132.425l10.087 46.299h46.128l64.565 302.727h188.27c180.249 0 330.937 111.079 371.257 299.936 45.723 213.833-107.598 311.038-239.408 311.038h-449.28l-199.063-913.701h152.032l-24.032-110.299h263.659l64.565 302.727h188.27c180.249 0 330.937 111.079 371.257 299.936 33.717 157.68-40.802 251.931-135.118 290.562zM422.343 773.918h129.131c64.592 0 107.602-55.538 88.786-124.955-16.135-69.44-83.385-124.976-150.64-124.976h-123.758l56.48 249.931z" />
<glyph unicode="&#xe00d;" d="M1014.88 33.504c12.192-12.192 12.192-31.968 0-44.192l-44.192-44.192c-12.224-12.192-32-12.192-44.192 0l-309.376 309.376c-3.36 3.36-5.6 7.328-7.104 11.552-63.456-46.368-141.376-74.048-226.016-74.048-212.064 0-384 171.936-384 384 0 212.064 171.936 384 384 384 212.064 0 384-171.936 384-384 0-84.64-27.68-162.56-74.048-226.016 4.224-1.504 8.192-3.712 11.552-7.104l309.376-309.376zM384 832c-141.376 0-256-114.624-256-256s114.624-256 256-256 256 114.624 256 256c0 141.376-114.624 256-256 256z" />
<glyph unicode="&#xe00e;" d="M956.928 327.886l-88.423 78.848c-25.6 22.834-25.6 60.11 0 82.944l88.423 78.798c25.6 22.834 18.738 44.082-15.207 47.31l-117.198 11.111c-33.945 3.225-52.224 32.409-40.551 64.871l62.208 173.159c11.673 32.462-2.61 44.288-31.694 26.265l-138.29-85.504c-29.081-18.023-66.663-8.192-83.506 21.863l-50.126 89.394c-16.793 30.055-44.647 30.208-61.799 0.359l-46.539-81.001c-17.152-29.851-56.576-42.599-87.602-28.315l-81.92 37.632c-31.079 14.235-54.937-2.251-53.095-36.761l4.455-82.688c1.842-34.457-23.602-69.991-56.526-78.848l-79.104-21.248c-32.921-8.907-38.962-34.816-13.362-57.65l88.423-78.798c25.6-22.784 25.6-60.11 0-82.894l-88.423-78.745c-25.6-22.887-18.841-44.903 15.001-48.999l107.264-13.006c33.842-4.199 52.736-34.407 41.934-67.122l-55.040-166.809c-10.802-32.818 4.608-45.618 34.201-28.416l126.105 72.91c29.646 17.202 69.426 7.68 88.473-20.889l52.377-78.695c18.994-28.722 47.616-27.086 63.438 3.481l46.030 88.679c15.922 30.617 53.913 43.111 84.43 27.801l88.782-44.391c30.617-15.31 54.119 0.409 52.274 34.919l-4.455 82.688c-1.842 34.51 23.602 69.991 56.526 78.898l79.054 21.198c33.022 8.96 39.063 34.869 13.463 57.653zM563.2 233.216h-102.4v107.52h102.4v-107.52zM563.2 397.006h-102.4v266.24h102.4v-266.24z" />
<glyph unicode="&#xe00f;" d="M992 480h-164.736c-5.824 43.424-17.632 84.192-33.888 121.376l102.624 102.624c17.696 0 32 14.336 32 32v160c0 17.664-14.304 32-32 32s-32-14.336-32-32v-160l-105.792-70.528c-16.288 24.032-34.656 45.824-55.2 64.16-9.632 129.344-91.456 230.368-191.008 230.368s-181.376-101.024-191.040-230.368c-20.512-18.304-38.912-40.096-55.168-64.16l-105.792 70.528v160c0 17.664-14.336 32-32 32s-32-14.336-32-32v-160c0-17.664 14.336-32 32-32l102.624-102.624c-16.256-37.184-28.064-77.952-33.888-121.376h-164.736c-17.664 0-32-14.304-32-32s14.336-32 32-32h164.576c3.552-26.688 9.504-116.32 17.184-140.8l-93.344-116.736c-13.92-3.52-24.416-15.488-24.416-30.464v-160c0-17.696 14.336-32 32-32s32 14.304 32 32v160l80.672 80.672c54.016-106.112 148-176.672 255.328-176.672 5.408 0 10.656 0.96 16 1.344 5.344-0.384 10.592-1.344 16-1.344 107.328 0 201.312 70.56 255.328 176.672l80.672-80.672v-160c0-17.696 14.304-32 32-32s32 14.304 32 32v160c0 14.976-10.496 26.944-24.384 30.432l-93.376 116.768c7.68 24.512 13.632 114.112 17.184 140.8h164.576c17.696 0 32 14.304 32 32s-14.304 32-32 32z" />
<glyph unicode="&#xe010;" d="M768 151.040h-665.6v460.8h132.864c0 0 35.278 45.874 111.104 102.4h-295.168c-28.263 0-51.2-22.937-51.2-51.2v-563.2c0-28.313 22.937-51.2 51.2-51.2h768c28.313 0 51.2 22.887 51.2 51.2v191.794l-102.4-84.224v-56.37zM684.135 506.88v-181.76l339.865 266.29-339.865 255.95v-160.256c-412.775-0.050-412.775-408.064-412.775-408.064 116.839 191.897 188.722 227.84 412.775 227.84z" />
<glyph unicode="&#xe015;" d="M256-64v1024h512v-1024l-256 191.488z" />
<glyph unicode="&#xe019;" d="M283.429 192q0-34.286-24.286-58.286t-58-24q-34.286 0-58.286 24t-24 58.286 24 58.286 58.286 24q33.714 0 58-24t24.286-58.286zM530.286 82.286q0-30.286-21.429-51.714t-51.714-21.429-51.714 21.429-21.429 51.714 21.429 51.714 51.714 21.429 51.714-21.429 21.429-51.714zM182.857 448q0-37.714-26.857-64.571t-64.571-26.857-64.571 26.857-26.857 64.571 26.857 64.571 64.571 26.857 64.571-26.857 26.857-64.571zM777.143 192q0-26.286-18.857-45.143t-45.143-18.857-45.143 18.857-18.857 45.143 18.857 45.143 45.143 18.857 45.143-18.857 18.857-45.143zM301.714 704q0-41.714-29.429-71.143t-71.143-29.429-71.143 29.429-29.429 71.143 29.429 71.143 71.143 29.429 71.143-29.429 29.429-71.143zM566.857 813.714q0-45.714-32-77.714t-77.714-32-77.714 32-32 77.714 32 77.714 77.714 32 77.714-32 32-77.714zM877.714 448q0-22.857-16-38.857t-38.857-16-38.857 16-16 38.857 16 38.857 38.857 16 38.857-16 16-38.857zM758.857 704q0-18.857-13.429-32.286t-32.286-13.429-32.286 13.429-13.429 32.286 13.429 32.286 32.286 13.429 32.286-13.429 13.429-32.286z" horiz-adv-x="896" />
<glyph unicode="&#xe0d6;" d="M829.486 740.704h-158.743v-158.743h39.664v-61.184l-161.157-81.947v341.52h85.824l-123.074 168.667-123.074-168.667h85.675v-409.851l-161.024 69.904v73.216c23.632 13.751 39.68 38.967 39.68 68.343 0 43.806-35.529 79.36-79.369 79.36-43.991 0-79.374-35.554-79.374-79.36 0-29.376 16.048-54.592 39.691-68.343v-125.367l240.395-104.29v-105.445c-47.269-15.771-81.662-59.886-81.662-112.622 0-65.605 53.296-118.912 119.061-118.912 65.765 0 119.061 53.307 119.061 118.912 0 52.736-34.393 96.85-81.81 112.622v171.349l240.578 122.341v109.755h39.657v158.743z" />
<glyph unicode="&#xe600;" d="M512 960c-282.77 0-512-229.23-512-512s229.23-512 512-512 512 229.23 512 512-229.23 512-512 512zM704 704c35.348 0 64-42.98 64-96s-28.652-96-64-96-64 42.98-64 96 28.652 96 64 96zM320 704c35.346 0 64-42.98 64-96s-28.654-96-64-96-64 42.98-64 96 28.654 96 64 96zM512 64c-166.868 0-305.422 139.872-320 318.304 93.77-54.114 204.050-85.064 320-85.064 115.95 0 226.23 30.806 320 84.92-14.574-178.438-153.128-318.16-320-318.16z" />
<glyph unicode="&#xe601;" d="M512 960c-282.77 0-512-229.23-512-512s229.23-512 512-512 512 229.23 512 512-229.23 512-512 512zM704 704c35.346 0 64-28.654 64-64s-28.654-64-64-64-64 28.654-64 64 28.654 64 64 64zM320 704c35.346 0 64-28.654 64-64s-28.654-64-64-64-64 28.654-64 64 28.654 64 64 64zM512 128c-116.51 0-218.464 62.274-274.426 155.344l82.328 49.396c39.174-65.148 110.542-108.74 192.098-108.74s152.924 43.592 192.098 108.74l82.328-49.396c-55.962-93.070-157.916-155.344-274.426-155.344z" />
<glyph unicode="&#xe602;" d="M512 960c-282.77 0-512-229.23-512-512s229.226-512 512-512c282.77 0 512 229.23 512 512s-229.23 512-512 512zM704 704c35.346 0 64-28.654 64-64s-28.654-64-64-64-64 28.654-64 64c0 35.346 28.654 64 64 64zM320 704c35.346 0 64-28.654 64-64s-28.654-64-64-64-64 28.654-64 64c0 35.346 28.654 64 64 64zM687.010 149.44c-82.902-30.18-174.9 12.712-205.080 95.614-18.108 49.742-73.306 75.478-123.048 57.372-45.562-16.588-70.958-64.296-60.988-110.424h-64.86c-9.244 72.508 32.45 144.532 103.956 170.56 82.904 30.18 174.902-12.712 205.082-95.614 18.108-49.742 73.306-75.476 123.046-57.37 45.562 16.584 70.958 64.294 60.988 110.422h64.864c9.24-72.506-32.454-144.532-103.96-170.56z" />
<glyph unicode="&#xe603;" d="M512 960c-282.77 0-512-229.23-512-512s229.23-512 512-512 512 229.23 512 512-229.23 512-512 512zM320 512c-35.346 0-64 42.98-64 96s28.654 96 64 96 64-42.98 64-96-28.654-96-64-96zM512 128c-70.692 0-128 57.308-128 128s57.308 128 128 128c70.692 0 128-57.308 128-128s-57.308-128-128-128zM704 512c-35.346 0-64 42.98-64 96s28.654 96 64 96 64-42.98 64-96-28.654-96-64-96z" />
<glyph unicode="&#xe604;" d="M512 960c-282.77 0-512-229.228-512-512 0-282.77 229.228-512 512-512 282.77 0 512 229.23 512 512 0 282.772-229.23 512-512 512zM704 704c35.346 0 64-42.98 64-96s-28.654-96-64-96-64 42.98-64 96 28.654 96 64 96zM352 647.938c59.646 0 102-22.332 102-57.282 0-7.398 3.812-42.994-0.17-49.594-14.828 24.576-54.81 42.188-101.83 42.188s-87.002-17.612-101.83-42.188c-3.982 6.6-0.17 42.196-0.17 49.594 0 34.95 42.354 57.282 102 57.282zM500.344 128c-119.242 0-223.858 64.28-282.892 160.952 70.41-55.060 194.534-65.81 325.288-39.978 140.248 27.706 249.11 91.542 288.454 176.594-21.654-167.96-161.518-297.568-330.85-297.568z" />
<glyph unicode="&#xe605;" d="M512 960c-282.77 0-512-229.23-512-512s229.23-512 512-512 512 229.23 512 512-229.23 512-512 512zM704 704c35.346 0 64-28.654 64-64s-28.654-64-64-64-64 28.654-64 64 28.654 64 64 64zM256 640c0 35.346 28.654 64 64 64s64-28.654 64-64-28.654-64-64-64-64 28.654-64 64zM331.244 153.614l-22.488 76.774 437 128 22.488-76.774-437-128z" />
<glyph unicode="&#xe606;" d="M512 960c-282.77 0-512-229.23-512-512s229.23-512 512-512 512 229.23 512 512-229.23 512-512 512zM704 704c35.346 0 64-28.654 64-64s-28.654-64-64-64-64 28.654-64 64 28.654 64 64 64zM320 704c35.346 0 64-28.654 64-64s-28.654-64-64-64-64 28.654-64 64 28.654 64 64 64zM704.098 179.26c-39.174 65.148-110.544 108.74-192.098 108.74-81.556 0-152.924-43.592-192.098-108.74l-82.328 49.396c55.96 93.070 157.916 155.344 274.426 155.344 116.508 0 218.464-62.274 274.426-155.344l-82.328-49.396z" />
<glyph unicode="&#xe607;" d="M819.2 512h-614.4c-28.262 0-51.2-22.938-51.2-51.2s22.938-51.2 51.2-51.2h614.4c28.314 0 51.2 22.938 51.2 51.2s-22.886 51.2-51.2 51.2zM204.8 614.4h614.4c28.314 0 51.2 22.938 51.2 51.2s-22.886 51.2-51.2 51.2h-614.4c-28.262 0-51.2-22.938-51.2-51.2s22.938-51.2 51.2-51.2zM819.2 307.2h-614.4c-28.262 0-51.2-22.886-51.2-51.2s22.938-51.2 51.2-51.2h614.4c28.314 0 51.2 22.886 51.2 51.2s-22.886 51.2-51.2 51.2z" />
<glyph unicode="&#xf000;" d="M0 972.8l1024-1024h-1024z" />
<glyph unicode="&#xf002;" d="M992 256h-96v64h96q13.001 0 22.501-9.499t9.499-22.501-9.499-22.501-22.501-9.499zM992 384h-96v64h96q13.001 0 22.501-9.499t9.499-22.501-9.499-22.501-22.501-9.499zM992 512h-96v64h96q13.001 0 22.501-9.499t9.499-22.501-9.499-22.501-22.501-9.499zM992 640h-96v64h96q13.001 0 22.501-9.499t9.499-22.501-9.499-22.501-22.501-9.499zM800-64q-13.001 0-22.501 9.499t-9.499 22.501v96h64v-96q0-13.001-9.499-22.501t-22.501-9.499zM768 128h-448q-26 0-45.001 19.001t-19.001 45.001v448q0 26 19.001 45.001t45.001 19.001h448q27.001 0 45.499-18.501t18.501-45.499v-448q0-27.001-18.501-45.499t-45.499-18.501zM768 864q0 13.001 9.499 22.501t22.501 9.499 22.501-9.499 9.499-22.501v-96h-64v96zM640 864q0 13.001 9.499 22.501t22.501 9.499 22.501-9.499 9.499-22.501v-96h-64v96zM512 864q0 13.001 9.499 22.501t22.501 9.499 22.501-9.499 9.499-22.501v-96h-64v96zM384 864q0 13.001 9.499 22.501t22.501 9.499 22.501-9.499 9.499-22.501v-96h-64v96zM256 864q0 13.001 9.499 22.501t22.501 9.499 22.501-9.499 9.499-22.501v-96h-64v96zM64 160q0 13.001 9.499 22.501t22.501 9.499h96v-64h-96q-13.001 0-22.501 9.499t-9.499 22.501zM64 288q0 13.001 9.499 22.501t22.501 9.499h96v-64h-96q-13.001 0-22.501 9.499t-9.499 22.501zM64 416q0 13.001 9.499 22.501t22.501 9.499h96v-64h-96q-13.001 0-22.501 9.499t-9.499 22.501zM64 544q0 13.001 9.499 22.501t22.501 9.499h96v-64h-96q-13.001 0-22.501 9.499t-9.499 22.501zM64 672q0 13.001 9.499 22.501t22.501 9.499h96v-64h-96q-13.001 0-22.501 9.499t-9.499 22.501zM320-32q0-13.001-9.499-22.501t-22.501-9.499-22.501 9.499-9.499 22.501v96h64v-96zM448-32q0-13.001-9.499-22.501t-22.501-9.499-22.501 9.499-9.499 22.501v96h64v-96zM576-32q0-13.001-9.499-22.501t-22.501-9.499-22.501 9.499-9.499 22.501v96h64v-96zM704-32q0-13.001-9.499-22.501t-22.501-9.499-22.501 9.499-9.499 22.501v96h64v-96zM1024 160q0-13.001-9.499-22.501t-22.501-9.499h-96v64h96q13.001 0 22.501-9.499t9.499-22.501z" />
<glyph unicode="&#xf012;" d="M146.286 137.143v-109.714q0-8-5.143-13.143t-13.143-5.143h-109.714q-8 0-13.143 5.143t-5.143 13.143v109.714q0 8 5.143 13.143t13.143 5.143h109.714q8 0 13.143-5.143t5.143-13.143zM365.714 210.286v-182.857q0-8-5.143-13.143t-13.143-5.143h-109.714q-8 0-13.143 5.143t-5.143 13.143v182.857q0 8 5.143 13.143t13.143 5.143h109.714q8 0 13.143-5.143t5.143-13.143zM585.143 356.571v-329.143q0-8-5.143-13.143t-13.143-5.143h-109.714q-8 0-13.143 5.143t-5.143 13.143v329.143q0 8 5.143 13.143t13.143 5.143h109.714q8 0 13.143-5.143t5.143-13.143zM804.571 576v-548.571q0-8-5.143-13.143t-13.143-5.143h-109.714q-8 0-13.143 5.143t-5.143 13.143v548.571q0 8 5.143 13.143t13.143 5.143h109.714q8 0 13.143-5.143t5.143-13.143zM1024 868.571v-841.143q0-8-5.143-13.143t-13.143-5.143h-109.714q-8 0-13.143 5.143t-5.143 13.143v841.143q0 8 5.143 13.143t13.143 5.143h109.714q8 0 13.143-5.143t5.143-13.143z" />
<glyph unicode="&#xf065;" d="M431.429 356.571q0-7.429-5.714-13.143l-189.714-189.714 82.286-82.286q10.857-10.857 10.857-25.714t-10.857-25.714-25.714-10.857h-256q-14.857 0-25.714 10.857t-10.857 25.714v256q0 14.857 10.857 25.714t25.714 10.857 25.714-10.857l82.286-82.286 189.714 189.714q5.714 5.714 13.143 5.714t13.143-5.714l65.143-65.143q5.714-5.714 5.714-13.143zM877.714 850.286v-256q0-14.857-10.857-25.714t-25.714-10.857-25.714 10.857l-82.286 82.286-189.714-189.714q-5.714-5.714-13.143-5.714t-13.143 5.714l-65.143 65.143q-5.714 5.714-5.714 13.143t5.714 13.143l189.714 189.714-82.286 82.286q-10.857 10.857-10.857 25.714t10.857 25.714 25.714 10.857h256q14.857 0 25.714-10.857t10.857-25.714z" horiz-adv-x="878" />
<glyph unicode="&#xf073;" d="M73.143 9.143h164.571v164.571h-164.571v-164.571zM274.286 9.143h182.857v164.571h-182.857v-164.571zM73.143 210.286h164.571v182.857h-164.571v-182.857zM274.286 210.286h182.857v182.857h-182.857v-182.857zM73.143 429.714h164.571v164.571h-164.571v-164.571zM493.714 9.143h182.857v164.571h-182.857v-164.571zM274.286 429.714h182.857v164.571h-182.857v-164.571zM713.143 9.143h164.571v164.571h-164.571v-164.571zM493.714 210.286h182.857v182.857h-182.857v-182.857zM292.571 704v164.571q0 7.429-5.429 12.857t-12.857 5.429h-36.571q-7.429 0-12.857-5.429t-5.429-12.857v-164.571q0-7.429 5.429-12.857t12.857-5.429h36.571q7.429 0 12.857 5.429t5.429 12.857zM713.143 210.286h164.571v182.857h-164.571v-182.857zM493.714 429.714h182.857v164.571h-182.857v-164.571zM713.143 429.714h164.571v164.571h-164.571v-164.571zM731.429 704v164.571q0 7.429-5.429 12.857t-12.857 5.429h-36.571q-7.429 0-12.857-5.429t-5.429-12.857v-164.571q0-7.429 5.429-12.857t12.857-5.429h36.571q7.429 0 12.857 5.429t5.429 12.857zM950.857 740.571v-731.429q0-29.714-21.714-51.429t-51.429-21.714h-804.571q-29.714 0-51.429 21.714t-21.714 51.429v731.429q0 29.714 21.714 51.429t51.429 21.714h73.143v54.857q0 37.714 26.857 64.571t64.571 26.857h36.571q37.714 0 64.571-26.857t26.857-64.571v-54.857h219.429v54.857q0 37.714 26.857 64.571t64.571 26.857h36.571q37.714 0 64.571-26.857t26.857-64.571v-54.857h73.143q29.714 0 51.429-21.714t21.714-51.429z" horiz-adv-x="951" />
<glyph unicode="&#xf085;" d="M512 448q0 60.571-42.857 103.429t-103.429 42.857-103.429-42.857-42.857-103.429 42.857-103.429 103.429-42.857 103.429 42.857 42.857 103.429zM950.857 155.429q0 29.714-21.714 51.429t-51.429 21.714-51.429-21.714-21.714-51.429q0-30.286 21.429-51.714t51.714-21.429 51.714 21.429 21.429 51.714zM950.857 740.571q0 29.714-21.714 51.429t-51.429 21.714-51.429-21.714-21.714-51.429q0-30.286 21.429-51.714t51.714-21.429 51.714 21.429 21.429 51.714zM731.429 500v-105.714q0-5.714-4-11.143t-9.143-6l-88.571-13.714q-6.286-20-18.286-43.429 19.429-27.429 51.429-65.714 4-5.714 4-11.429 0-6.857-4-10.857-13.143-17.143-47.143-51.143t-44.857-34q-6.286 0-12 4l-65.714 51.429q-21.143-10.857-44-17.714-6.286-61.714-13.143-88.571-4-13.714-17.143-13.714h-106.286q-6.286 0-11.429 4.286t-5.714 10l-13.143 87.429q-19.429 5.714-42.857 17.714l-67.429-50.857q-4-4-11.429-4-6.286 0-12 4.571-82.286 76-82.286 91.429 0 5.143 4 10.857 5.714 8 23.429 30.286t26.857 34.857q-13.143 25.143-20 46.857l-86.857 13.714q-5.714 0.571-9.714 5.429t-4 11.143v105.714q0 5.714 4 11.143t9.143 6l88.571 13.714q6.286 20 18.286 43.429-19.429 27.429-51.429 65.714-4 6.286-4 11.429 0 6.857 4 11.429 12.571 17.143 46.857 50.857t45.143 33.714q6.286 0 12-4l65.714-51.429q19.429 10.286 44 18.286 6.286 61.714 13.143 88 4 13.714 17.143 13.714h106.286q6.286 0 11.429-4.286t5.714-10l13.143-87.429q19.429-5.714 42.857-17.714l67.429 50.857q4.571 4 11.429 4 6.286 0 12-4.571 82.286-76 82.286-91.429 0-5.143-4-10.857-6.857-9.143-24-30.857t-25.714-34.286q13.143-27.429 19.429-46.857l86.857-13.143q5.714-1.143 9.714-6t4-11.143zM1097.143 195.429v-80q0-9.143-85.143-17.714-6.857-15.429-17.143-29.714 29.143-64.571 29.143-78.857 0-2.286-2.286-4-69.714-40.571-70.857-40.571-4.571 0-26.286 26.857t-29.714 38.857q-11.429-1.143-17.143-1.143t-17.143 1.143q-8-12-29.714-38.857t-26.286-26.857q-1.143 0-70.857 40.571-2.286 1.714-2.286 4 0 14.286 29.143 78.857-10.286 14.286-17.143 29.714-85.143 8.571-85.143 17.714v80q0 9.143 85.143 17.714 7.429 16.571 17.143 29.714-29.143 64.571-29.143 78.857 0 2.286 2.286 4 2.286 1.143 20 11.429t33.714 19.429 17.143 9.143q4.571 0 26.286-26.571t29.714-38.571q11.429 1.143 17.143 1.143t17.143-1.143q29.143 40.571 52.571 64l3.429 1.143q2.286 0 70.857-40 2.286-1.714 2.286-4 0-14.286-29.143-78.857 9.714-13.143 17.143-29.714 85.143-8.571 85.143-17.714zM1097.143 780.571v-80q0-9.143-85.143-17.714-6.857-15.429-17.143-29.714 29.143-64.571 29.143-78.857 0-2.286-2.286-4-69.714-40.571-70.857-40.571-4.571 0-26.286 26.857t-29.714 38.857q-11.429-1.143-17.143-1.143t-17.143 1.143q-8-12-29.714-38.857t-26.286-26.857q-1.143 0-70.857 40.571-2.286 1.714-2.286 4 0 14.286 29.143 78.857-10.286 14.286-17.143 29.714-85.143 8.571-85.143 17.714v80q0 9.143 85.143 17.714 7.429 16.571 17.143 29.714-29.143 64.571-29.143 78.857 0 2.286 2.286 4 2.286 1.143 20 11.429t33.714 19.429 17.143 9.143q4.571 0 26.286-26.571t29.714-38.571q11.429 1.143 17.143 1.143t17.143-1.143q29.143 40.571 52.571 64l3.429 1.143q2.286 0 70.857-40 2.286-1.714 2.286-4 0-14.286-29.143-78.857 9.714-13.143 17.143-29.714 85.143-8.571 85.143-17.714z" horiz-adv-x="1097" />
<glyph unicode="&#xf0ad;" d="M219.429 118.857q0 14.857-10.857 25.714t-25.714 10.857-25.714-10.857-10.857-25.714 10.857-25.714 25.714-10.857 25.714 10.857 10.857 25.714zM587.429 358.857l-389.714-389.714q-21.143-21.143-51.429-21.143-29.714 0-52 21.143l-60.571 61.714q-21.714 20.571-21.714 51.429 0 30.286 21.714 52l389.143 389.143q22.286-56 65.429-99.143t99.143-65.429zM949.714 607.429q0-22.286-13.143-60.571-26.857-76.571-94-124.286t-147.714-47.714q-105.714 0-180.857 75.143t-75.143 180.857 75.143 180.857 180.857 75.143q33.143 0 69.429-9.429t61.429-26.571q9.143-6.286 9.143-16t-9.143-16l-167.429-96.571v-128l110.286-61.143q2.857 1.714 45.143 27.714t77.429 46.286 40.286 20.286q8.571 0 13.429-5.714t4.857-14.286z" horiz-adv-x="951" />
</font>
</defs>
</svg>
